shadowbox

Collapse

Announcement

Collapse
No announcement yet.

Wajah Tum Ho (2016) 1080p - WEB-HD - MPEG - AC3 - Esub - [DDR-Exclusive]

Collapse
X
  • Filter
  • Time
  • Show
Clear All
new posts

  • Wajah Tum Ho (2016) 1080p - WEB-HD - MPEG - AC3 - Esub - [DDR-Exclusive]

    Code:
    General Complete name                            : wajah.tum.ho.2016.webhd.mpeg.ac3.esub.ddr.mkv Format                                   : Matroska Format version                           : Version 4 / Version 2 File size                                : 3.11 GiB Duration                                 : 2 h 10 min Overall bit rate                         : 3 405 kb/s Encoded date                             : UTC 2017-01-10 10:32:04  Video ID                                       : 1 Format                                   : MPEG-4 Visual Format profile                           : Simple@L1 Format settings, BVOP                    : No Format settings, QPel                    : No Format settings, GMC                     : No warppoints Format settings, Matrix                  : Default (H.263) Codec ID                                 : V_MPEG4/ISO/ASP Codec ID/Info                            : Advanced Simple Profile Duration                                 : 2 h 10 min Bit rate                                 : 3 019 kb/s Width                                    : 1 088 pixels Height                                   : 464 pixels Display aspect ratio                     : 2.35:1 Frame rate mode                          : Constant Frame rate                               : 25.000 FPS Color space                              : YUV Chroma subsampling                       : 4:2:0 Bit depth                                : 8 bits Scan type                                : Progressive Compression mode                         : Lossy Bits/(Pixel*Frame)                       : 0.239 Stream size                              : 2.76 GiB (89%) Title                                    : DDR Writing library                          : Lavc55.52.102 Default                                  : Yes Forced                                   : No  Audio ID                                       : 2 Format                                   : AC-3 Format/Info                              : Audio Coding 3 Mode extension                           : CM (complete main) Format settings, Endianness              : Big Codec ID                                 : A_AC3 Duration                                 : 2 h 10 min Bit rate mode                            : Constant Bit rate                                 : 384 kb/s Channel(s)                               : 6 channels Channel positions                        : Front: L C R, Side: L R, LFE Sampling rate                            : 48.0 kHz Frame rate                               : 31.250 FPS (1536 spf) Bit depth                                : 16 bits Compression mode                         : Lossy Delay relative to video                  : -21 ms Stream size                              : 359 MiB (11%) Title                                    : DDR Language                                 : Hindi Default                                  : Yes Forced                                   : No  Text ID                                       : 3 Format                                   : UTF-8 Codec ID                                 : S_TEXT/UTF8 Codec ID/Info                            : UTF-8 Plain Text Duration                                 : 2 h 7 min Bit rate                                 : 49 b/s Count of elements                        : 1470 Stream size                              : 46.3 KiB (0%) Title                                    : DDR Language                                 : English Default                                  : Yes Forced                                   : No
    SINGLE DIRECT FAST LINKS
    Code:
    http://www.heroupload.com/664524d7c0a799af/Wajah.Tum.Ho.2016.WEBHD.MPEG.AC3.Esub-DDR.mkv
    700MB LINKS
    Code:
     http://www.heroupload.com/804c05188de4e843/Wajah.Tum.Ho.2016.WEBHD.MPEG.AC3.Esub-DDR.mkv.001 http://www.heroupload.com/b0be53d998116ae0/Wajah.Tum.Ho.2016.WEBHD.MPEG.AC3.Esub-DDR.mkv.002 http://www.heroupload.com/02836b2cc917631c/Wajah.Tum.Ho.2016.WEBHD.MPEG.AC3.Esub-DDR.mkv.003 http://www.heroupload.com/6714c64b45f26265/Wajah.Tum.Ho.2016.WEBHD.MPEG.AC3.Esub-DDR.mkv.004 http://www.heroupload.com/a889c6a35081305d/Wajah.Tum.Ho.2016.WEBHD.MPEG.AC3.Esub-DDR.mkv.005
Working...
X