shadowbox

Collapse

Announcement

Collapse
No announcement yet.

Muqaddar Ka Sikandar (1978) Hindi 720p DVDRip x264 AC3 5.1 ESub-TeamHHD

Collapse
X
  • Filter
  • Time
  • Show
Clear All
new posts

  • Muqaddar Ka Sikandar (1978) Hindi 720p DVDRip x264 AC3 5.1 ESub-TeamHHD

    Code:
    General Format                      : Matroska Format version              : Version 4 / Version 2 File size                   : 3.00 GiB Duration                    : 2 h 54 min Overall bit rate            : 2 451 kb/s Movie name                  : Muqaddar Ka Sikandar---Pasha@Hon3yHD  Video Format                      : AVC Format/Info                 : Advanced Video Codec Format profile              : High@L4.1 Format settings, CABAC      : Yes Format settings, ReFrames   : 10 frames Codec ID                    : V_MPEG4/ISO/AVC Duration                    : 2 h 54 min Bit rate                    : 2 001 kb/s Width                       : 1 280 pixels Height                      : 640 pixels Display aspect ratio        : 2.000 Frame rate mode             : Constant Frame rate                  : 29.970 (30000/1001) FPS Color space                 : YUV Chroma subsampling          : 4:2:0 Bit depth                   : 8 bits Scan type                   : Progressive Bits/(Pixel*Frame)          : 0.082 Stream size                 : 2.45 GiB (82%) Title                       : Pasha@Hon3yHD  Audio Format/Info                 : Audio Coding 3 Mode extension              : CM (complete main) Format settings, Endianness : Big Codec ID                    : A_AC3 Duration                    : 2 h 54 min Bit rate mode               : Constant Bit rate                    : 448 kb/s Channel(s)                  : 6 channels Channel positions           : Front: L C R, Side: L R, LFE Sampling rate               : 48.0 kHz Frame rate                  : 31.250 FPS (1536 spf) Bit depth                   : 16 bits Compression mode            : Lossy Stream size                 : 561 MiB (18%) Title                       : Pasha@Hon3yHD Language                    : Hindi Default                     : Yes Forced                      : No  Subtitle Format                      : UTF-8 Codec ID                    : S_TEXT/UTF8 Codec ID/Info               : UTF-8 Plain Text Duration                    : 2 h 53 min Bit rate                    : 69 b/s Count of elements           : 2554 Stream size                 : 88.3 KiB (0%) Title                       : Pasha@Hon3yHD Language                    : English Default                     : Yes Forced                      : No
    SINGLE DIRECT FAST LINKS
    Code:
     http://www.heroupload.com/82c8915866419563/Muqaddar.Ka.Sikandar.1978.Hindi.DVDRip.720p.x264.DD5.1.ESub-HHD.mkv
Working...
X