shadowbox

Collapse

Announcement

Collapse
No announcement yet.

Wajah Tum Ho (2016) 720p WEB-DL H264 DD5.1 ESub-DDR

Collapse
X
  • Filter
  • Time
  • Show
Clear All
new posts

  • Wajah Tum Ho (2016) 720p WEB-DL H264 DD5.1 ESub-DDR

    Code:
    Format                                   : Matroska Format version                           : Version 4 / Version 2 File size                                : 5.09 GiB Duration                                 : 2 h 10 min Overall bit rate mode                    : Variable Overall bit rate                         : 5 586 kb/s Encoded date                             : UTC 2017-01-11 21:07:35 Writing application                      : mkvmerge v9.6.0 ('Slave To Your Mind') 64bit Writing library                          : libebml v1.3.4 + libmatroska v1.4.5  Video ID                                       : 1 Format                                   : AVC Format/Info                              : Advanced Video Codec Format profile                           : High@L4.1 Format settings, CABAC                   : Yes Format settings, ReFrames                : 8 frames Codec ID                                 : V_MPEG4/ISO/AVC Duration                                 : 2 h 10 min Bit rate mode                            : Variable Bit rate                                 : 5 200 kb/s Maximum bit rate                         : 24.0 Mb/s Width                                    : 1 364 pixels Height                                   : 580 pixels Display aspect ratio                     : 2.35:1 Frame rate mode                          : Constant Frame rate                               : 25.000 FPS Color space                              : YUV Chroma subsampling                       : 4:2:0 Bit depth                                : 8 bits Scan type                                : Progressive Bits/(Pixel*Frame)                       : 0.263 Stream size                              : 4.74 GiB (93%) Language                                 : English Default                                  : Yes Forced                                   : No Color range                              : Limited Color primaries                          : BT.709 Transfer characteristics                 : BT.709 Matrix coefficients                      : BT.709  Audio ID                                       : 2 Format                                   : AC-3 Format/Info                              : Audio Coding 3 Mode extension                           : CM (complete main) Format settings, Endianness              : Big Codec ID                                 : A_AC3 Duration                                 : 2 h 10 min Bit rate mode                            : Constant Bit rate                                 : 384 kb/s Channel(s)                               : 6 channels Channel positions                        : Front: L C R, Side: L R, LFE Sampling rate                            : 48.0 kHz Frame rate                               : 31.250 FPS (1536 spf) Bit depth                                : 16 bits Compression mode                         : Lossy Delay relative to video                  : 20 ms Stream size                              : 359 MiB (7%) Language                                 : Hindi Default                                  : Yes Forced                                   : No  Text ID                                       : 3 Format                                   : UTF-8 Codec ID                                 : S_TEXT/UTF8 Codec ID/Info                            : UTF-8 Plain Text Duration                                 : 2 h 7 min Bit rate                                 : 49 b/s Count of elements                        : 1470 Stream size                              : 46.3 KiB (0%) Language                                 : English Default                                  : Yes Forced                                   : No
    SINGLE DIRECT FAST LINKS
    Code:
    http://www.heroupload.com/a194c58f7f9e19df/Wajah.Tum.Ho.2016.720p.WEB-DL.H264.DD5.1.ESub-DDR.mkv
    1GB LINKS
    Code:
     http://www.heroupload.com/86954faf9dd9cc29/Wajah.Tum.Ho.2016.720p.WEB-DL.H264.DD5.1.ESub-DDR.mkv.001 http://www.heroupload.com/606657557db722e2/Wajah.Tum.Ho.2016.720p.WEB-DL.H264.DD5.1.ESub-DDR.mkv.002 http://www.heroupload.com/b426eab22c70e412/Wajah.Tum.Ho.2016.720p.WEB-DL.H264.DD5.1.ESub-DDR.mkv.003 http://www.heroupload.com/ad3084c323919eb3/Wajah.Tum.Ho.2016.720p.WEB-DL.H264.DD5.1.ESub-DDR.mkv.004 http://www.heroupload.com/f962d46b6ba98166/Wajah.Tum.Ho.2016.720p.WEB-DL.H264.DD5.1.ESub-DDR.mkv.005 http://www.heroupload.com/47a6dba568aeb521/Wajah.Tum.Ho.2016.720p.WEB-DL.H264.DD5.1.ESub-DDR.mkv.006
Working...
X