shadowbox

Collapse

Announcement

Collapse
No announcement yet.

Naam Hai Akira (2016) Tiny 1080p Blu-Ray x264 AAC 5.1 ESub - DDR

Collapse
X
  • Filter
  • Time
  • Show
Clear All
new posts

  • Naam Hai Akira (2016) Tiny 1080p Blu-Ray x264 AAC 5.1 ESub - DDR

    Code:
    Format : Matroska File size : 2.58 GiB Duration : 2 h 16 min Overall bit rate : 2 698 kb/s  Video Format : AVC Format/Info : Advanced Video Codec Format profile : High@L4.1 Format settings, CABAC : Yes Format settings, ReFrames : 5 frames Codec ID : V_MPEG4/ISO/AVC Duration : 2 h 16 min Bit rate : 2 500 kb/s Width : 1 920 pixels Height : 800 pixels Display aspect ratio : 2.40:1 Frame rate mode : Constant Frame rate : 24.000 FPS Color space : YUV Chroma subsampling : 4:2:0 Bit depth : 8 bits Scan type : Progressive Bits/(Pixel*Frame) : 0.068 Stream size : 2.39 GiB (93%) Default : Yes Forced : No Color range : Limited Color primaries : BT.709 Transfer characteristics : BT.709 Matrix coefficients : BT.709  Audio #1 Format : AAC Format/Info : Advanced Audio Codec Format profile : LC Codec ID : A_AAC Duration : 2 h 16 min Bit rate : 192 kb/s Channel(s) : 6 channels Channel positions : Front: L C R, Side: L R, LFE Sampling rate : 48.0 kHz Frame rate : 46.875 FPS (1024 spf) Compression mode : Lossy Delay relative to video : 9 ms Stream size : 188 MiB (7%) Language : Hindi Default : Yes Forced : No
    SINGLE DIRECT FAST LINKS
    Code:
    http://www.heroupload.com/d82a1d59693a4be1/Akira.2016.1080p.Blu-Ray.x264.AAC.5.1.ESub-DDR.mkv
Working...
X