shadowbox

Collapse

Announcement

Collapse
No announcement yet.

Lai Bhari (2014) 1.47GB - 1/3DVDscr - x264 - AAC 2.0 - SAP - Marathi - TT Exclusive

Collapse
X
  • Filter
  • Time
  • Show
Clear All
new posts

  • Lai Bhari (2014) 1.47GB - 1/3DVDscr - x264 - AAC 2.0 - SAP - Marathi - TT Exclusive







    Code:
    Format                                   : MPEG-4
    Format profile                           : Base Media
    Codec ID                                 : isom
    File size                                : 1.46 GiB
    Duration                                 : 2h 37mn
    Overall bit rate mode                    : Variable
    Overall bit rate                         : 1 329 Kbps
    Encoded date                             : UTC 2014-08-11 00:53:48
    Tagged date                              : UTC 2014-08-11 00:53:48
    
    Video
    ID                                       : 1
    Format                                   : AVC
    Format/Info                              : Advanced Video Codec
    Format profile                           : High@L4.1
    Format settings, CABAC                   : Yes
    Format settings, ReFrames                : 4 frames
    Codec ID                                 : avc1
    Codec ID/Info                            : Advanced Video Coding
    Duration                                 : 2h 37mn
    Bit rate                                 : 1 264 Kbps
    Maximum bit rate                         : 7 417 Kbps
    Width                                    : 640 pixels
    Height                                   : 272 pixels
    Display aspect ratio                     : 2.35:1
    Frame rate mode                          : Constant
    Frame rate                               : 30.000 fps
    Color space                              : YUV
    Chroma subsampling                       : 4:2:0
    Bit depth                                : 8 bits
    Scan type                                : Progressive
    Bits/(Pixel*Frame)                       : 0.242
    Stream size                              : 1.39 GiB (95%)
    Writing library                          : x264 core 142 r2431 ac76440
    Encoding settings                        : cabac=1 / ref=3 / deblock=1:0:0 / analyse=0x3:0x133 / me=hex / subme=7 / psy=1 / psy_rd=1.00:0.15 / mixed_ref=1 / me_range=16 / chroma_me=1 / trellis=1 / 8x8dct=1 / cqm=0 / deadzone=21,11 / fast_pskip=1 / chroma_qp_offset=-3 / threads=6 / lookahead_threads=1 / sliced_threads=0 / nr=0 / decimate=1 / interlaced=0 / bluray_compat=0 / constrained_intra=0 / bframes=3 / b_pyramid=2 / b_adapt=1 / b_bias=0 / direct=1 / weightb=1 / open_gop=0 / weightp=2 / keyint=300 / keyint_min=30 / scenecut=40 / intra_refresh=0 / rc_lookahead=40 / rc=abr / mbtree=1 / bitrate=1264 / ratetol=1.0 / qcomp=0.60 / qpmin=0 / qpmax=69 / qpstep=4 / vbv_maxrate=24000 / vbv_bufsize=24000 / nal_hrd=none / filler=0 / ip_ratio=1.40 / aq=1:1.00
    Encoded date                             : UTC 2014-08-11 00:47:59
    Tagged date                              : UTC 2014-08-11 00:55:12
    Color primaries                          : Generic film
    
    Audio
    ID                                       : 2
    Format                                   : AAC
    Format/Info                              : Advanced Audio Codec
    Format profile                           : HE-AAC / LC
    Codec ID                                 : 40
    Duration                                 : 2h 37mn
    Bit rate mode                            : Variable
    Bit rate                                 : 63.8 Kbps
    Maximum bit rate                         : 102 Kbps
    Channel(s)                               : 2 channels
    Channel positions                        : Front: L R
    Sampling rate                            : 48.0 KHz / 24.0 KHz
    Compression mode                         : Lossy
    Stream size                              : 72.0 MiB (5%)
    Encoded date                             : UTC 2014-08-11 00:38:00
    Tagged date                              : UTC 2014-08-11 00:55:12

















    SINGLE DIRECT FAST LINKS

    Code:
    http://terafile.co/a050c6226307/Lai.Bhari.2014.2CD.x264.SAP.DVDSCRRIP.AAC.2.0.Audio-Team.Telly.mp4
    Code:
    http://rapidgator.net/file/ae63eae9effc7abfc56ada77a18d57a7/Lai.Bhari.2014.2CD.x264.SAP.DVDSCRRIP.AAC.2.0.Audio-Team.Telly.mp4.html
    Code:
    http://uploaded.net/file/4qolgd8u/Lai.Bhari.2014.2CD.x264.SAP.DVDSCRRIP.AAC.2.0.Audio-Team.Telly.mp4

Working...
X