shadowbox

Collapse

Announcement

Collapse
No announcement yet.

Meenkuzhambum Manpaanayum (2016) Tamil - Ultra HD 4K - AVC - DD5.1 - ESUB - MTR

Collapse
X
  • Filter
  • Time
  • Show
Clear All
new posts

  • Meenkuzhambum Manpaanayum (2016) Tamil - Ultra HD 4K - AVC - DD5.1 - ESUB - MTR

    Code:
    General Format                                   : MPEG-4 Format profile                           : Base Media Codec ID                                 : isom (isom) File size                                : 11.4 GiB Duration                                 : 2 h 9 min Overall bit rate mode                    : Variable Overall bit rate                         : 12.6 Mb/s Encoded date                             : UTC 2017-01-04 22:46:51 Tagged date                              : UTC 2017-01-04 22:46:51  Video ID                                       : 1 Format                                   : HEVC Format/Info                              : High Efficiency Video Coding Format profile                           : Main@L5@Main Codec ID                                 : hev1 Codec ID/Info                            : High Efficiency Video Coding Duration                                 : 2 h 9 min Bit rate                                 : 12.0 Mb/s Width                                    : 3 840 pixels Height                                   : 2 160 pixels Display aspect ratio                     : 16:9 Frame rate mode                          : Constant Frame rate                               : 23.976 (24000/1001) FPS Color space                              : YUV Chroma subsampling                       : 4:2:0 Bit depth                                : 8 bits Bits/(Pixel*Frame)                       : 0.060 Stream size                              : 10.9 GiB (95%) Encoded date                             : UTC 2017-01-04 22:46:51 Tagged date                              : UTC 2017-01-04 22:46:51  Audio #1 ID                                       : 2 Format                                   : AAC Format/Info                              : Advanced Audio Codec Format profile                           : LC Codec ID                                 : 40 Duration                                 : 2 h 9 min Bit rate mode                            : Variable Bit rate                                 : 96.0 kb/s Maximum bit rate                         : 101 kb/s Channel(s)                               : 2 channels Channel positions                        : Front: L R Sampling rate                            : 48.0 kHz Frame rate                               : 46.875 FPS (1024 spf) Compression mode                         : Lossy Stream size                              : 86.6 MiB (1%) Language                                 : English Encoded date                             : UTC 2017-01-04 22:46:51 Tagged date                              : UTC 2017-01-04 22:46:51  Audio #2 ID                                       : 3 Format                                   : AC-3 Format/Info                              : Audio Coding 3 Mode extension                           : CM (complete main) Format settings, Endianness              : Big Codec ID                                 : ac-3 Duration                                 : 2 h 9 min Bit rate mode                            : Constant Bit rate                                 : 512 kb/s Channel(s)                               : 6 channels Channel positions                        : Front: L C R, Side: L R, LFE Sampling rate                            : 48.0 kHz Frame rate                               : 31.250 FPS (1536 spf) Bit depth                                : 16 bits Compression mode                         : Lossy Stream size                              : 475 MiB (4%) Language                                 : English Encoded date                             : UTC 2017-01-04 22:46:52 Tagged date                              : UTC 2017-01-04 22:46:52
    2GB LINKS
    Code:
     http://www.heroupload.com/15377d94aa574517/Meenkuzhambum.Manpaanayum.2016.4K.Untouched.UHD.MP4.11.4GB.Tamil-MTR.mp4.001 http://www.heroupload.com/28056e9cda520c20/Meenkuzhambum.Manpaanayum.2016.4K.Untouched.UHD.MP4.11.4GB.Tamil-MTR.mp4.002 http://www.heroupload.com/69bfdd1b64144021/Meenkuzhambum.Manpaanayum.2016.4K.Untouched.UHD.MP4.11.4GB.Tamil-MTR.mp4.003 http://www.heroupload.com/47412cac98d836a2/Meenkuzhambum.Manpaanayum.2016.4K.Untouched.UHD.MP4.11.4GB.Tamil-MTR.mp4.004 http://www.heroupload.com/876292c707590f07/Meenkuzhambum.Manpaanayum.2016.4K.Untouched.UHD.MP4.11.4GB.Tamil-MTR.mp4.005 http://www.heroupload.com/db48af0c38e0dca6/Meenkuzhambum.Manpaanayum.2016.4K.Untouched.UHD.MP4.11.4GB.Tamil-MTR.mp4.006
Working...
X