shadowbox

Collapse

Announcement

Collapse
No announcement yet.

Moo (2016) Tamil - 700MB - 1CDRip - TCRip - x264 - MP3-TR Release

Collapse
X
  • Filter
  • Time
  • Show
Clear All
new posts

  • Moo (2016) Tamil - 700MB - 1CDRip - TCRip - x264 - MP3-TR Release

    Code:
    General Format                                   : Matroska Format version                           : Version 4 / Version 2 File size                                : 715 MiB Duration                                 : 2 h 7 min Overall bit rate                         : 781 kb/s Encoded date                             : UTC 2017-01-08 18:03:49 Writing application                      : mkvmerge v7.8.0 ('River Man') 64bit built on Mar 27 2015 16:31:37 Writing library                          : libebml v1.3.1 + libmatroska v1.4.2  Video ID                                       : 1 Format                                   : AVC Format/Info                              : Advanced Video Codec Format profile                           : High@L2.1 Format settings, CABAC                   : Yes Format settings, ReFrames                : 4 frames Codec ID                                 : V_MPEG4/ISO/AVC Duration                                 : 2 h 7 min Bit rate                                 : 683 kb/s Width                                    : 608 pixels Height                                   : 256 pixels Display aspect ratio                     : 2.40:1 Frame rate mode                          : Constant Frame rate                               : 25.000 FPS Color space                              : YUV Chroma subsampling                       : 4:2:0 Bit depth                                : 8 bits Scan type                                : Progressive Bits/(Pixel*Frame)                       : 0.176 Stream size                              : 625 MiB (87%) Writing library                          : x264 core 148 r2638 7599210 Encoding settings                        : cabac=1 / ref=3 / deblock=1:0:0 / analyse=0x3:0x113 / me=hex / subme=7 / psy=1 / psy_rd=1.00:0.00 / mixed_ref=1 / me_range=16 / chroma_me=1 / trellis=1 / 8x8dct=1 / cqm=0 / deadzone=21,11 / fast_pskip=1 / chroma_qp_offset=-2 / threads=8 / lookahead_threads=1 / sliced_threads=0 / nr=0 / decimate=1 / interlaced=0 / bluray_compat=0 / constrained_intra=0 / bframes=3 / b_pyramid=2 / b_adapt=1 / b_bias=0 / direct=1 / weightb=1 / open_gop=0 / weightp=2 / keyint=250 / keyint_min=25 / scenecut=40 / intra_refresh=0 / rc_lookahead=40 / rc=2pass / mbtree=1 / bitrate=683 / ratetol=1.0 / qcomp=0.60 / qpmin=0 / qpmax=69 / qpstep=4 / cplxblur=20.0 / qblur=0.5 / ip_ratio=1.40 / aq=1:1.00 Language                                 : English Default                                  : Yes Forced                                   : Yes  Audio ID                                       : 2 Format                                   : MPEG Audio Format version                           : Version 1 Format profile                           : Layer 3 Mode                                     : Joint stereo Mode extension                           : MS Stereo Codec ID                                 : A_MPEG/L3 Codec ID/Hint                            : MP3 Duration                                 : 2 h 7 min Bit rate mode                            : Constant Bit rate                                 : 96.0 kb/s Channel(s)                               : 2 channels Sampling rate                            : 44.1 kHz Frame rate                               : 38.281 FPS (1152 spf) Compression mode                         : Lossy Stream size                              : 87.8 MiB (12%) Language                                 : English Default                                  : Yes Forced                                   : Yes
    SINGLE DIRECT FAST LINKS
    Code:
     http://www.heroupload.com/385d9735eccae689/Moo.2016.Tamil.TCRip.x264.Mp3.700MB-Exclusive.mkv
Working...
X