shadowbox

Collapse

Announcement

Collapse
No announcement yet.

Chennai 600028 II: Second Innings (2016) Tamil - 1080p - WEB-HD - AVC - DD5.1 - [HT]

Collapse
X
  • Filter
  • Time
  • Show
Clear All
new posts

  • Chennai 600028 II: Second Innings (2016) Tamil - 1080p - WEB-HD - AVC - DD5.1 - [HT]

    Code:
    General Format                                   : MPEG-4 Format profile                           : Base Media Codec ID                                 : isom (isom/iso2/avc1/mp41) File size                                : 4.49 GiB Duration                                 : 2 h 26 min Overall bit rate mode                    : Variable Overall bit rate                         : 4 380 kb/s Writing application                      : Lavf56.15.105  Video ID                                       : 1 Format                                   : AVC Format/Info                              : Advanced Video Codec Format profile                           : High@L4.1 Format settings, CABAC                   : Yes Format settings, ReFrames                : 4 frames Format settings, GOP                     : M=4, N=50 Codec ID                                 : avc1 Codec ID/Info                            : Advanced Video Coding Duration                                 : 2 h 26 min Bit rate                                 : 4 096 kb/s Width                                    : 1 920 pixels Height                                   : 1 080 pixels Display aspect ratio                     : 16:9 Frame rate mode                          : Constant Frame rate                               : 25.000 FPS Color space                              : YUV Chroma subsampling                       : 4:2:0 Bit depth                                : 8 bits Scan type                                : Progressive Bits/(Pixel*Frame)                       : 0.079 Stream size                              : 4.15 GiB (92%) Writing library                          : x264 core 142 r2479 dd79a61 Encoding settings                        : cabac=1 / ref=3 / deblock=1:0:0 / analyse=0x3:0x113 / me=hex / subme=7 / psy=1 / psy_rd=1.00:0.00 / mixed_ref=1 / me_range=16 / chroma_me=1 / trellis=1 / 8x8dct=1 / cqm=0 / deadzone=21,11 / fast_pskip=1 / chroma_qp_offset=-2 / threads=12 / lookahead_threads=2 / sliced_threads=0 / nr=0 / decimate=1 / interlaced=0 / bluray_compat=0 / constrained_intra=0 / bframes=3 / b_pyramid=2 / b_adapt=1 / b_bias=0 / direct=1 / weightb=1 / open_gop=0 / weightp=2 / keyint=50 / keyint_min=26 / scenecut=0 / intra_refresh=0 / rc_lookahead=40 / rc=abr / mbtree=1 / bitrate=4096 / ratetol=1.0 / qcomp=0.60 / qpmin=0 / qpmax=69 / qpstep=4 / vbv_maxrate=4200 / vbv_bufsize=4200 / nal_hrd=none / filler=0 / ip_ratio=1.40 / aq=1:1.00 Tagged date                              : UTC 2017-01-10 16:53:16  Audio ID                                       : 2 Format                                   : AAC Format/Info                              : Advanced Audio Codec Format profile                           : LC Codec ID                                 : 40 Duration                                 : 2 h 26 min Bit rate mode                            : Variable Bit rate                                 : 325 kb/s Maximum bit rate                         : 4 200 kb/s Channel(s)                               : 2 channels Channel(s)_Original                      : 6 channels Channel positions                        : Front: L C R, Side: L R, LFE Sampling rate                            : 48.0 kHz Frame rate                               : 46.875 FPS (1024 spf) Compression mode                         : Lossy Stream size                              : 341 MiB (7%) Default                                  : Yes Alternate group                          : 1 Tagged date                              : UTC 2017-01-10 16:53:16
    SINGLE DIRECT FAST LINKS
    Code:
    http://www.heroupload.com/033d0c5c40b7b5a4/Chennai.600028.II.2nd.Innings.2016.Tamil.WEB-HD.1080p.AVC.DD5.1.ESub-HT.mp4
    1GB LINKS
    Code:
     http://www.heroupload.com/2314a3ba34193750/Chennai.600028.II.2nd.Innings.2016.Tamil.WEB-HD.1080p.AVC.DD5.1.ESub-HT.mp4.001 http://www.heroupload.com/a48a469835695302/Chennai.600028.II.2nd.Innings.2016.Tamil.WEB-HD.1080p.AVC.DD5.1.ESub-HT.mp4.002 http://www.heroupload.com/4005fcf259c28f3b/Chennai.600028.II.2nd.Innings.2016.Tamil.WEB-HD.1080p.AVC.DD5.1.ESub-HT.mp4.003 http://www.heroupload.com/ee827857ee3e7d49/Chennai.600028.II.2nd.Innings.2016.Tamil.WEB-HD.1080p.AVC.DD5.1.ESub-HT.mp4.004 http://www.heroupload.com/be17c9efc75a01fd/Chennai.600028.II.2nd.Innings.2016.Tamil.WEB-HD.1080p.AVC.DD5.1.ESub-HT.mp4.005
Working...
X