shadowbox

Collapse

Announcement

Collapse
No announcement yet.

Size Zero (2015) Telugu - 1080p - WEB-HD - AVC - AAC - HC-ESub-TMV

Collapse
X
  • Filter
  • Time
  • Show
Clear All
new posts

  • Size Zero (2015) Telugu - 1080p - WEB-HD - AVC - AAC - HC-ESub-TMV

    Code:
    General Format                                   : MPEG-4 Format profile                           : Base Media Codec ID                                 : isom (isom/iso2/avc1/mp41) File size                                : 2.44 GiB Duration                                 : 2 h 3 min Overall bit rate mode                    : Variable Overall bit rate                         : 2 829 kb/s Writing application                      : Lavf56.40.100  Video ID                                       : 1 Format                                   : AVC Format/Info                              : Advanced Video Codec Format profile                           : Main@L3.1 Format settings, CABAC                   : Yes Format settings, ReFrames                : 4 frames Codec ID                                 : avc1 Codec ID/Info                            : Advanced Video Coding Duration                                 : 2 h 3 min Bit rate                                 : 2 698 kb/s Nominal bit rate                         : 3 500 kb/s Width                                    : 1 920 pixels Height                                   : 1 080 pixels Display aspect ratio                     : 16:9 Frame rate mode                          : Constant Frame rate                               : 25.000 FPS Color space                              : YUV Chroma subsampling                       : 4:2:0 Bit depth                                : 8 bits Scan type                                : Progressive Bits/(Pixel*Frame)                       : 0.052 Stream size                              : 2.33 GiB (95%) Writing library                          : x264 core 146 r2538 121396c Encoding settings                        : cabac=1 / ref=2 / deblock=1:0:0 / analyse=0x1:0x111 / me=hex / subme=7 / psy=1 / psy_rd=1.00:0.00 / mixed_ref=1 / me_range=16 / chroma_me=1 / trellis=1 / 8x8dct=0 / cqm=0 / deadzone=21,11 / fast_pskip=1 / chroma_qp_offset=-2 / threads=36 / lookahead_threads=6 / sliced_threads=0 / nr=0 / decimate=1 / interlaced=0 / bluray_compat=0 / constrained_intra=0 / bframes=3 / b_pyramid=2 / b_adapt=1 / b_bias=0 / direct=1 / weightb=1 / open_gop=0 / weightp=2 / keyint=50 / keyint_min=26 / scenecut=0 / intra_refresh=0 / rc_lookahead=40 / rc=cbr / mbtree=1 / bitrate=3500 / ratetol=1.0 / qcomp=0.60 / qpmin=0 / qpmax=69 / qpstep=4 / vbv_maxrate=3500 / vbv_bufsize=3500 / nal_hrd=none / filler=0 / ip_ratio=1.40 / aq=1:1.00 Language                                 : English Tagged date                              : UTC 2016-01-07 16:08:59  Audio ID                                       : 2 Format                                   : AAC Format/Info                              : Advanced Audio Codec Format profile                           : LC Codec ID                                 : 40 Duration                                 : 2 h 3 min Source duration                          : 2 h 3 min Bit rate mode                            : Variable Bit rate                                 : 128 kb/s Maximum bit rate                         : 3 500 kb/s Channel(s)                               : 2 channels Channel positions                        : Front: L R Sampling rate                            : 44.1 kHz Frame rate                               : 43.066 FPS (1024 spf) Compression mode                         : Lossy Stream size                              : 113 MiB (5%) Source stream size                       : 113 MiB (5%) Language                                 : English Default                                  : Yes Alternate group                          : 1 Tagged date                              : UTC 2016-01-07 16:08:59
    SINGLE DIRECT FAST LINKS
    Code:
    http://www.heroupload.com/dcd7215aa7358ef9/Size.Zero.2015.Telugu.WEB-HD.1080p.AVC.AAC.HC.ESub-TMV.mp4
    700MB LINKS
    Code:
     http://www.heroupload.com/f3601d44fb343125/Size.Zero.2015.Telugu.WEB-HD.1080p.AVC.AAC.HC.ESub-TMV.mp4.001 http://www.heroupload.com/88e237c157ba1de1/Size.Zero.2015.Telugu.WEB-HD.1080p.AVC.AAC.HC.ESub-TMV.mp4.002 http://www.heroupload.com/66e9dcf7893b5f3b/Size.Zero.2015.Telugu.WEB-HD.1080p.AVC.AAC.HC.ESub-TMV.mp4.003 http://www.heroupload.com/d8d99e817605498f/Size.Zero.2015.Telugu.WEB-HD.1080p.AVC.AAC.HC.ESub-TMV.mp4.004
Working...
X